May 3, 2010

Kick Ass (2010) CAM XviDT0XIC

null
null

http://www.imdb.com/title/tt1250777/

Plot
Dave Lizewski is an unnoticed high school student and comic book fan with a few friends and who lives alone with his father. His life is not very difficult and his personal trials not that overwhelming. However, one day he makes the simple decision to become a super-hero even though he has no powers or training.
General
Complete name : Kick-Ass.2010.CAM.XviD.TA.avi
Format : AVI
Format/Info : Audio Video Interleave
File size : 1.00 GiB
Duration : 1h 49mn
Overall bit rate : 1 308 Kbps
Writing application : Lavf50.6.0
Video
Format : xvid
Codec ID : xvid
Duration : 1h 49mn
Bit rate : 1 200 Kbps
Width : 640 pixels
Height : 480 pixels
Display aspect ratio : 4:3
Frame rate : 25.000 fps
Resolution : 24 bits
Bits/(Pixel*Frame) : 0.156
Stream size : 943 MiB (92%)
Audio
ID : 1
Format : MPEG Audio
Format version : Version 1
Format profile : Layer 3
Codec ID : 55
Codec ID/Hint : MP3
Duration : 1h 49mn
Bit rate mode : Constant
Bit rate : 96.0 Kbps
Channel(s) : 2 channels
Sampling rate : 44.1 KHz
Resolution : 16 bits
Stream size : 75.5 MiB (7%)
Alignment : Aligned on interleaves
Interleave, duration : 26 ms (0.65 video frame)
Writing library : LAME3.98

null
http://rapidshare.com/files/376962075/K.A.2010.part01.rar
http://rapidshare.com/files/376962056/K.A.2010.part02.rar
http://rapidshare.com/files/376962035/K.A.2010.part03.rar
http://rapidshare.com/files/376962013/K.A.2010.part04.rar
http://rapidshare.com/files/376962037/K.A.2010.part05.rar
http://rapidshare.com/files/376962030/K.A.2010.part06.rar
http://rapidshare.com/files/376962057/K.A.2010.part07.rar
http://rapidshare.com/files/376962031/K.A.2010.part08.rar
http://rapidshare.com/files/376961223/K.A.2010.part09.rar
password : rsfile.com
enjoy

0 comments:

Post a Comment

Yavrim.com